<?xml version="1.0" standalone="no"?> <!DOCTYPE svg PUBLIC "-//W3C//DTD SVG 1.0//EN" "http://www.w3.org/TR/2001/REC-SVG-20010904/DTD/svg10.dtd" > <svg xmlns="http://www.w3.org/2000/svg" width="100%" height="100%">
<defs >
<font horiz-adv-x="697" ><font-face
    font-family="Noto Sans Bengali"
    units-per-em="1000"
    panose-1="0 0 0 0 0 0 0 0 0 0"
    ascent="917"
    descent="-408"
    alphabetic="0" />
<missing-glyph horiz-adv-x="600" d="M94 0V714H505V0H94ZM145 51H454V663H145V51Z" />
<glyph unicode=" " glyph-name="space" horiz-adv-x="260" />
<glyph unicode="!" glyph-name="exclam.beng" horiz-adv-x="383" d="M181 201L156 714H263L238 201H181ZM147 54Q147 91 165 106T209 121Q234 121 252 106T271 54Q271 18 253 2T209 -14Q183 -14 165 2T147 54Z" />
<glyph unicode="&quot;" glyph-name="quotedbl.beng" horiz-adv-x="502" d="M140 471L115 729H226L201 471H140ZM316 471L291 729H401L376 471H316Z" />
<glyph unicode="#" glyph-name="numbersign.beng" horiz-adv-x="653" d="M159 176H34V242H171L202 394H70V459H213L247 632H317L284 459H424L458 632H527L493 459H619V394H480L451 242H584V176H438L404 0H334L369 176H229L195 0H126L159 176ZM381 242L411 394H271L242
242H381Z" />
<glyph unicode="%" glyph-name="percent.beng" horiz-adv-x="828" d="M569 622H646L261 0H183L569 622ZM202 271Q131 271 94 319T57 452Q57 538 91 585T202 632Q274 632 311 585T349 452Q349 367 314 319T202 271ZM201 334Q239 334 257 364T276 452Q276 511 258
540T201 569Q163 569 146 540T129 452Q129 394 146 364T201 334ZM624 -10Q552 -10 516 38T479 171Q479 257 513 304T624 352Q697 352 733 305T770 171Q770 87 736 39T624 -10ZM624 55Q662 55 680 84T699 171Q699 230 681 259T624 289Q586 289 569 260T552 171Q552
113 569 84T624 55Z" />
<glyph unicode="&apos;" glyph-name="quotesingle.beng" horiz-adv-x="326" d="M140 471L115 729H226L201 471H140Z" />
<glyph unicode="(" glyph-name="parenleft.beng" horiz-adv-x="419" d="M256 -135Q183 -39 147 83T111 332Q111 461 147 579T256 792H337Q270 694 234 575T197 331Q197 204 232 85T338 -135H256Z" />
<glyph unicode=")" glyph-name="parenright.beng" horiz-adv-x="419" d="M82 -135Q150 -37 186 80T222 325Q222 453 187 572T81 792H163Q237 696 272 574T308 324Q308 196 273 78T163 -135H82Z" />
<glyph unicode="*" glyph-name="asterisk.beng" horiz-adv-x="607" d="M138 340L256 499L73 513L87 607L278 553L257 745H357L336 553L530 607L543 513L358 499L478 340L391 293L305 468L228 293L138 340Z" />
<glyph unicode="+" glyph-name="plus.beng" horiz-adv-x="592" d="M259 286H70V359H259V548H332V359H521V286H332V97H259V286Z" />
<glyph unicode="," glyph-name="comma.beng" horiz-adv-x="263" d="M190 116L197 105Q188 70 175 32T146 -44T113 -119H46Q61 -60 73 2T93 116H190Z" />
<glyph unicode="-" glyph-name="hyphen.beng" horiz-adv-x="340" d="M49 338H291V256H49V338Z" />
<glyph unicode="." glyph-name="period.beng" horiz-adv-x="268" d="M72 54Q72 91 90 106T133 121Q159 121 177 106T196 54Q196 18 178 2T133 -14Q108 -14 90 2T72 54Z" />
<glyph unicode="/" glyph-name="slash.beng" horiz-adv-x="449" d="M315 792H397L135 -125H52L315 792Z" />
<glyph unicode="0" glyph-name="zero.beng" horiz-adv-x="551" d="M275 -10Q160 -10 104 87T48 358Q48 474 70 556T143 681T275 725Q391 725 447 629T504 358Q504 243 482 161T409 34T275 -10ZM275 66Q350 66 382 138T414 358Q414 504 382 576T275 649Q200 649
169 577T138 358Q138 212 169 139T275 66Z" />
<glyph unicode="1" glyph-name="one.beng" horiz-adv-x="551" d="M261 0V446Q261 474 262 506T264 569T265 622Q249 605 238 595T206 567L134 508L87 568L274 714H347V0H261Z" />
<glyph unicode="2" glyph-name="two.beng" horiz-adv-x="551" d="M47 76L218 262Q267 315 301 357T355 440T374 530Q374 587 342 618T259 649Q213 649 176 630T104 582L54 640Q80 664 111 683T180 713T260 724Q323 724 368 701T439 636T464 533Q464 478 442 429T382
332T293 231L156 85V81H492V0H47V76Z" />
<glyph unicode="3" glyph-name="three.beng" horiz-adv-x="551" d="M229 -10Q176 -10 129 -2T40 29V112Q83 90 132 78T227 65Q317 65 358 102T400 206Q400 250 378 278T314 319T214 332H149V406H214Q267 406 303 423T359 470T378 541Q378 575 363 599T320 636T256
649Q204 649 164 633T88 590L43 651Q80 681 134 702T256 724Q326 724 373 701T445 639T469 547Q469 499 450 464T396 406T315 376V373Q401 363 446 319T491 203Q491 141 463 93T377 17T229 -10Z" />
<glyph unicode="4" glyph-name="four.beng" horiz-adv-x="551" d="M341 160H11V238L335 718H427V241H531V160H427V0H341V160ZM341 241V415Q341 442 342 472T344 531T346 585T347 626H343Q336 607 323 581T299 538L98 241H341Z" />
<glyph unicode="5" glyph-name="five.beng" horiz-adv-x="551" d="M238 -10Q188 -10 142 -1T64 29V113Q86 98 116 88T180 72T240 66Q317 66 360 103T404 219Q404 290 361 326T236 363Q210 363 177 359T123 350L79 378L106 714H443V633H183L164 428Q180 432 207
435T266 438Q331 438 382 415T464 345T495 229Q495 117 429 54T238 -10Z" />
<glyph unicode="6" glyph-name="six.beng" horiz-adv-x="551" d="M288 -10Q223 -10 170 24T86 128T55 305Q55 367 62 427T90 540T145 635T234 700T367 724Q386 724 410 722T451 715V639Q434 645 413 648T370 651Q304 651 262 628T195 566T159 474T146 364H152Q172
399 208 423T302 447Q364 447 409 422T480 348T505 230Q505 156 479 102T404 19T288 -10ZM287 65Q346 65 382 105T419 230Q419 298 387 337T290 377Q246 377 213 358T162 309T144 247Q144 204 160 162T208 93T287 65Z" />
<glyph unicode="7" glyph-name="seven.beng" horiz-adv-x="551" d="M412 633H44V714H503V643L232 0H137L412 633Z" />
<glyph unicode="8" glyph-name="eight.beng" horiz-adv-x="551" d="M276 -10Q169 -10 111 41T52 182Q52 255 92 300T190 374Q158 395 132 420T91 478T75 554Q75 611 103 649T177 706T276 725Q331 725 376 706T449 649T477 553Q477 510 460 478T415 421T349 378Q387
358 421 332T478 270T500 186Q500 126 472 82T393 14T276 -10ZM274 64Q343 64 378 97T413 185Q413 235 375 270T263 340Q202 311 171 273T139 181Q139 129 171 97T274 64ZM277 414Q309 429 334 447T375 490T390 550Q390 600 360 625T275 651Q241 651 216 640T176
606T162 550Q162 514 177 490T218 448T277 414Z" />
<glyph unicode="9" glyph-name="nine.beng" horiz-adv-x="551" d="M190 -10Q171 -10 147 -8T106 -1V75Q123 69 144 66T187 63Q253 63 296 86T363 148T398 240T411 350H405Q392 327 372 308T323 278T255 267Q194 267 148 292T77 366T52 484Q52 559 78 612T154 695T269
724Q335 724 387 690T471 586T502 409Q502 348 495 288T467 174T412 79T323 14T190 -10ZM267 337Q311 337 344 356T395 406T413 467Q413 511 397 552T350 621T270 649Q212 649 175 609T138 484Q138 416 170 377T267 337Z" />
<glyph unicode=":" glyph-name="colon.beng" horiz-adv-x="294" d="M147 414Q121 414 103 430T85 482Q85 520 103 535T147 550Q173 550 191 535T209 482Q209 446 191 430T147 414ZM147 -14Q121 -14 103 2T85 54Q85 92 103 107T147 122Q173 122 191 107T209 54Q209
18 191 2T147 -14Z" />
<glyph unicode=";" glyph-name="semicolon.beng" horiz-adv-x="294" d="M190 116L197 105Q188 70 175 32T146 -44T113 -119H46Q61 -60 73 2T93 116H190ZM147 414Q121 414 103 430T85 482Q85 520 103 535T147 550Q173 550 191 535T209 482Q209 446 191 430T147 414Z" />
<glyph unicode="&lt;" glyph-name="less.beng" horiz-adv-x="592" d="M70 284V333L521 568V490L162 313L521 155V77L70 284Z" />
<glyph unicode="=" glyph-name="equal.beng" horiz-adv-x="592" d="M70 459H521V386H70V459ZM70 259H521V186H70V259Z" />
<glyph unicode="&gt;" glyph-name="greater.beng" horiz-adv-x="592" d="M70 155L429 313L70 490V568L521 333V284L70 77V155Z" />
<glyph unicode="?" glyph-name="question.beng" horiz-adv-x="518" d="M190 202V220Q190 258 197 285T222 338T273 390Q304 417 323 438T352 483T361 541Q361 588 333 617T250 646Q210 646 173 634T102 604L71 675Q111 695 157 709T250 724Q341 724 393 676T446
542Q446 499 435 467T400 408T341 350Q308 321 290 301T265 260T258 211V202H190ZM229 -14Q203 -14 185 2T167 54Q167 92 185 107T229 122Q255 122 273 107T291 54Q291 18 273 2T229 -14Z" />
<glyph unicode="[" glyph-name="bracketleft.beng" horiz-adv-x="415" d="M140 792H334V722H220V-65H334V-135H140V792Z" />
<glyph unicode="\" glyph-name="backslash.beng" horiz-adv-x="449" d="M52 792H134L397 -135H315L52 792Z" />
<glyph unicode="]" glyph-name="bracketright.beng" horiz-adv-x="415" d="M81 -65H194V712H81V782H275V-135H81V-65Z" />
<glyph unicode="^" glyph-name="asciicircum.beng" horiz-adv-x="592" d="M273 719H323L541 268H463L298 627L128 268H49L273 719Z" />
<glyph unicode="_" glyph-name="underscore.beng" horiz-adv-x="411" d="M-2 -90H413V-158H-2V-90Z" />
<glyph unicode="{" glyph-name="braceleft.beng" horiz-adv-x="391" d="M44 365Q84 365 111 374T153 403T167 455V651Q167 701 189 731T249 776T337 792V720Q310 720 290 714T259 692T248 645V450Q248 400 221 371T142 330V325Q194 315 221 286T248 206V13Q248
-18 259 -34T290 -56T337 -63V-135Q288 -134 250 -120T189 -75T167 6V201Q167 234 153 253T112 282T44 291V365Z" />
<glyph unicode="|" glyph-name="bar.beng" horiz-adv-x="540" d="M234 792H306V-135H234V792Z" />
<glyph unicode="}" glyph-name="braceright.beng" horiz-adv-x="455" d="M374 291Q334 291 307 282T266 254T252 201V6Q252 -44 230 -74T169 -119T81 -135V-63Q109 -62 129 -56T159 -34T170 13V206Q170 257 197 286T276 325V330Q224 341 197 370T170 450V645Q170
676 160 691T129 713T81 720V792Q130 791 168 777T229 732T252 651V455Q252 423 266 403T307 374T374 365V291Z" />
<glyph unicode="~" glyph-name="asciitilde.beng" horiz-adv-x="592" d="M70 335Q95 362 125 375T191 388Q210 388 226 386T262 377T312 357Q349 341 369 336T410 330Q438 330 468 347T521 389V310Q497 284 467 271T400 257Q381 257 365 259T330 268T279 288Q243
304 224 309T181 315Q154 315 124 298T70 256V335Z" />
</font>
</defs>
</svg>
